好多国砖自带的播放软件,对于一些cue根本识别不了,什么原因?

sidewind 1月前 18

比如山灵音乐,也比如QA361的机器


但是同样的cue,在电脑Foobar2000或者随身听的海贝音乐就能识别
最新回复 (33)
  • 北欧 1月前
    引用 2
    程序员偷懒……
  • 楼主 sidewind 1月前
    引用 3
    刚刚更新了下M6pro的固件,原有的音乐里面,多识别出来好多但还有还多依然识别不出来
  • 楼主 sidewind 1月前
    引用 4
    比如这个cue,死活就认不出来,文件名肯定是没弄错,文件也能正常播放,flac直接点可以播放
    REM GENRE Classical
    REM DATE 1967
    REM DISCID 5610D806
    REM COMMENT "ExactAudioCopy v1.0b3"
    PERFORMER "Leopold Stokowski"
    TITLE "Tchaikovsky - Symphony No.5"
    FILE "CD34 Tchaikovsky Symphony No 5.flac" WAVE
      TRACK 01 AUDIO
        TITLE "Tchaikovsky - Symphony No.5 - I"
        PERFORMER "Leopold Stokowski"
        INDEX 00 00:00:00
        INDEX 01 00:00:33
      TRACK 02 AUDIO
        TITLE "Tchaikovsky - Symphony No.5 - II"
        PERFORMER "Leopold Stokowski"
        INDEX 00 15:46:40
        INDEX 01 15:51:33
      TRACK 03 AUDIO
        TITLE "Tchaikovsky - Symphony No.5 - III"
        PERFORMER "Leopold Stokowski"
        INDEX 00 30:51:35
        INDEX 01 30:56:33
      TRACK 04 AUDIO
        TITLE "Tchaikovsky - Symphony No.5 - IV"
        PERFORMER "Leopold Stokowski"
        INDEX 00 37:29:38
        INDEX 01 37:34:33
      TRACK 05 AUDIO
        TITLE "Glazunov - Violin Concerto in A minor - I - II"
        PERFORMER "Leopold Stokowski"
        INDEX 00 50:31:40
        INDEX 01 50:39:33
      TRACK 06 AUDIO
        TITLE "Glazunov - Violin Concerto in A minor - III"
        PERFORMER "Leopold Stokowski"
        INDEX 01 65:44:38
  • 通常是文字编码的原因。Mac系统下的cue,我得重新转换下编码才行,也有个别的,转换器编码还是不行,仔细看好像也没问题,不是程序猿也搞不明白问题在哪。
    砖上,倒没注意过,我都是用中子播放器,没发现这种问题。
    就发现m6p和飞傲x53的自带播放器,如果是dlna播放,居然有文件夹数量限制,超出的根本看不见。海贝音乐就没这问题。
  • andre叁仟 1月前
    引用 6
    我也碰到过,搞不懂什么原因,我就在PC上用Foobar把cue整轨文件转换成一个个单独的文件了,先看一下原来整轨是什么码率,选个同样或者更高的码率来分轨,弄好整个人都舒坦了
  • updater 1月前
    引用 7
    我遇到过cue无法被电脑foobar,且便携播放器端的UAPP,poweramp等识别,只有中子能正常识别读取分割的情况。
  • Enyo 1月前
    引用 8
    我361没问题呀
  • 坎坎伐檀兮 1月前
    引用 9
    可能是编码的问题
  • 楼主 sidewind 1月前
    引用 10
    今年不能发烧 发表于 2020-9-21 14:29
    通常是文字编码的原因。Mac系统下的cue,我得重新转换下编码才行,也有个别的,转换器编码还是不行,仔细看 ...
    已经确认是编码的问题,识别不了的都是UTF-8的cue,ANSI没问题
    可是,win10默认是UTF-8,甚至我另存为ANSI都没用,自己全部跑回去UTF-8了,这个就扯淡了
  • foxpix 1月前
    引用 11
    软件做的不完善
  • sniper_dtc 1月前
    引用 12
    andre叁仟 发表于 2020-9-21 14:30
    我也碰到过,搞不懂什么原因,我就在PC上用Foobar把cue整轨文件转换成一个个单独的文件了,先看一下原来整 ...
    提高码率是什么操作,转换格式么?
  • 天空上尉 1月前
    引用 13
    好像有些是因为cue要预先读取正规,如果文件特别大,那内存就不够
  • 楼主 sidewind 1月前
    引用 14
    天空上尉 发表于 2020-9-21 16:24
    好像有些是因为cue要预先读取正规,如果文件特别大,那内存就不够
    我这里都是普通CD格式的pcm,整轨文件几乎没有超过400M的
  • xinyuek 1月前
    引用 15
    或者时cue中的某些标签不能识别,把不必要的标签都移除吧,就留分轨信息。
  • andre叁仟 1月前
    引用 16
    sniper_dtc 发表于 2020-9-21 16:13
    提高码率是什么操作,转换格式么?
    转换时选用更高的码率,是为了不让拆轨造成码率下降,比如有的flac是VBR,转换的时候我会选稍高一档的,如果整轨文件是CBR就没有这个麻烦
  • quanyiw 1月前
    引用 17
    我被这个折腾好久了,以后无法识别cue的播放器,一律不考虑。
  • 两厢爱好者 1月前
    引用 18
    quanyiw 发表于 2020-9-21 20:54
    我被这个折腾好久了,以后无法识别cue的播放器,一律不考虑。
    这个读CUE是很方便,我这几天分轨累坏了
  • sidewind 发表于 2020-9-21 15:50
    已经确认是编码的问题,识别不了的都是UTF-8的cue,ANSI没问题
    可是,win10默认是UTF-8,甚至我另存为AN ...
    我在Mac下改cue的时候,有些不能直接改直接存,会提示无法保存,要先保存成个txt文件,然后再把后缀改回成cue。
    win 下会不会也类似?是不是要先复制成txt文件,在txt文件上改就可以了?
  • 梅干菜炒饭 1月前
    引用 20
    用专业的EDIT软件改格式 可以解决这个问题
  • 楼主 sidewind 1月前
    引用 21
    今年不能发烧 发表于 2020-9-22 07:25
    我在Mac下改cue的时候,有些不能直接改直接存,会提示无法保存,要先保存成个txt文件,然后再把后缀改回 ...
    txt会默认搞成UTF-8,哪怕选择存为ANSI
  • 楼主 sidewind 1月前
    引用 22
    梅干菜炒饭 发表于 2020-9-22 07:45
    用专业的EDIT软件改格式 可以解决这个问题
    好的,多谢,我试试
  • 楼主 sidewind 1月前
    引用 23
    梅干菜炒饭 发表于 2020-9-22 07:45
    用专业的EDIT软件改格式 可以解决这个问题
    神奇的事情发生了,同一个cue,用记事本打开是UTF-8,用edit打开是ANSI,内容没问题,其他软件都能播放
    然而用EDIT改成ANSI存储好,扫描还是找不到。。。。。
  • erjiniu 1月前
    引用 24
    山灵音乐还不带淡入淡出的,放一首爆一首
  • along200506 1月前
    引用 25
    sidewind 发表于 2020-9-21 14:17
    比如这个cue,死活就认不出来,文件名肯定是没弄错,文件也能正常播放,flac直接点可以播放
    REM GENRE C ...
    解决方法很简单,将分轨时间中的“ INDEX 00-----”这一整行去掉,每首中的这个都去掉!
  • 楼主 sidewind 1月前
    引用 26
    along200506 发表于 2020-9-22 19:43
    解决方法很简单,将分轨时间中的“ INDEX 00-----”这一整行去掉,每首中的这个都去掉!
    这个工作量有点大啊。。。。。。
  • along200506 1月前
    引用 27
    机器读取机制不同啊,你的机器可能只能这样识别,00是歌曲开始时间,01是结束时间,要把00改成每首歌的开始时间,不改的话就把这行直接去掉,别无他法
  • 楼主 sidewind 1月前
    引用 28
    along200506 发表于 2020-9-22 20:16
    机器读取机制不同啊,你的机器可能只能这样识别,00是歌曲开始时间,01是结束时间,要把00改成每首歌的开始 ...
    确认不是这个原因,我把00都去掉了也没用,而且其他能正常播放的,里面很多也同时都有00、01
  • along200506 1月前
    引用 29
    sidewind 发表于 2020-9-23 07:59
    确认不是这个原因,我把00都去掉了也没用,而且其他能正常播放的,里面很多也同时都有00、01
    TRACK 01 AUDIO
    INDEX 01 00:00:33
    试试这样,每首歌只保留以上,其他的去掉。如若不行,可能某些机器对flac的cue不太友好,可将整轨转换为wav试试看,cue文件中的指向要和wav文件名一致
  • along200506 1月前
    引用 30
    上面有误,应该保留的是
    TRACK 01 AUDIO
    TITLE "Tchaikovsky - Symphony No.5 - I"
    INDEX 01 00:00:33
  • along200506 1月前
    引用 31
    TITLE "Tchaikovsky - Symphony No.5"
    FILE "CD34 Tchaikovsky Symphony No 5.flac" WAVE
      TRACK 01 AUDIO
        TITLE "Tchaikovsky - Symphony No.5 - I"
        INDEX 01 00:00:00
      TRACK 02 AUDIO
        TITLE "Tchaikovsky - Symphony No.5 - II"
        INDEX 01 15:51:33
      TRACK 03 AUDIO
        TITLE "Tchaikovsky - Symphony No.5 - III"
        INDEX 01 30:56:33
      TRACK 04 AUDIO
        TITLE "Tchaikovsky - Symphony No.5 - IV"
        INDEX 01 37:34:33
      TRACK 05 AUDIO
        TITLE "Glazunov - Violin Concerto in A minor - I - II"
        INDEX 01 50:39:33
      TRACK 06 AUDIO
        TITLE "Glazunov - Violin Concerto in A minor - III"
        INDEX 01 65:44:38
  • kagami0 1月前
    引用 32
    弄这么麻烦为啥不用foobar2000直接转成分轨的flac文件?
    cue形式因为编码和支持标签有限的问题只方便刻录CD并不适合直接播放,目前没有任何一个正版数字音源用cue形式发布就能看出问题了
    有人觉得就算无损转无损也会影响音质那纯粹是玄学或者播放设备的性能不足问题,不是音源的音质有变化
  • AIMP 1月前
    引用 33
    index 00的问题以前也遇到过,还是建议转成分轨文件,无用的标签可以删掉
  • 楼主 sidewind 1月前
    引用 34
    kagami0 发表于 2020-9-23 17:47
    弄这么麻烦为啥不用foobar2000直接转成分轨的flac文件?
    cue形式因为编码和支持标签有限的问题只方便刻录CD ...
    因为麻烦,文件太多,不可能挨个转换,所以我希望能从设置或者厂家固件的角度解决问题
    当然,对于无聊问题喜欢研究,研究不明白不甘心也是一个重要的原因
  • 游客
    35
返回